File & Image Uploader Kup si zde reklamu
Kup si zde reklamu

Přihlásit se


Vetřelec: Covenant / Alien: Covenant (2017)

Filmy komprimované v rozlišení 4K UHD (2160p) v CZ/SK jazyce.

Moderátor: owerkill

Odpovědět
Sonty
Uploader
Uploader
Příspěvky: 24
Registrován: 20 črc 2017 00:09

Vetřelec: Covenant / Alien: Covenant (2017)

Příspěvek od Sonty » 20 pro 2017 00:25

Vetřelec: Covenant / Alien: Covenant (2017)

Video/Zdroj: UHD 2160p HDR
Audio: CZ 5.1ch AC-3, EN 7.1/5.1ch Dolby TrueHD / Atmos
Titulky: CZ, EN

Obrázek

Kód: Vybrat vše

https://www.csfd.cz/film/322881-vetrelec-covenant/prehled/
http://www.imdb.com/title/tt2316204/?ref_=nv_sr_4
Format : Matroska
Format version : Version 4 / Version 2
File size : 35.2 GiB
Duration : 2 h 2 min
Overall bit rate mode : Variable
Overall bit rate : 41.2 Mb/s

Video
Format : HEVC
Format profile : Main 10@L5.1@High
Duration : 2 h 2 min
Bit rate : 35.0 Mb/s
Width : 3 840 pixels
Height : 2 160 pixels
Display aspect ratio : 16:9
Frame rate mode : Constant
Frame rate : 23.976 (24000/1001) FPS
Color space : YUV
Chroma subsampling : 4:2:0 (Type 2)
Bit depth : 10 bits
Bits/(Pixel*Frame) : 0.176
Stream size : 29.8 GiB (85%)

Audio #1
Format profile : TrueHD+Atmos / TrueHD
Duration : 2 h 2 min
Bit rate mode : Variable
Bit rate : 5 713 kb/s
Maximum bit rate : 9 858 kb/s
Channel(s) : Object Based / 8 channels
Channel positions : Object Based / Front: L C R, Side: L R, Back: L R, LFE
Sampling rate : / 48.0 kHz
Frame rate : 1 200.000 FPS (40 SPF)
Compression mode : Lossless
Delay relative to video : 32 ms
Stream size : 4.87 GiB (14%)
Language : English
Default : No
Forced : No

Audio #2
Format : AC-3
Duration : 2 h 2 min
Bit rate mode : Constant
Bit rate : 448 kb/s
Channel(s) : 6 channels
Channel positions : Front: L C R, Side: L R, LFE
Sampling rate : 48.0 kHz
Frame rate : 31.250 FPS (1536 SPF)
Bit depth : 16 bits
Compression mode : Lossy
Stream size : 391 MiB (1%)
Language : Czech
Default : Yes
Forced : Yes

Text #1
Format : PGS
Stream size : 26.9 MiB (0%)
Default : No
Forced : No

Text #2
Format : PGS
Stream size : 139 KiB (0%)
Default : Yes
Forced : Yes

Kód: Vybrat vše

http://fastshare.cz/8180674/ac17uhd.part01.rar
http://fastshare.cz/8181623/ac17uhd.part02.rar
http://fastshare.cz/8187255/ac17uhd.part03.rar
http://fastshare.cz/8183716/ac17uhd.part04.rar
http://fastshare.cz/8185479/ac17uhd.part05.rar
http://fastshare.cz/8190649/ac17uhd.part06.rar
http://fastshare.cz/8192647/ac17uhd.part07.rar
http://fastshare.cz/8193245/ac17uhd.part08.rar
http://fastshare.cz/8197235/ac17uhd.part09.rar
http://fastshare.cz/8202491/ac17uhd.part10.rar
http://fastshare.cz/8204194/ac17uhd.part11.rar
http://fastshare.cz/8206069/ac17uhd.part12.rar
http://fastshare.cz/8206357/ac17uhd.part13.rar
http://fastshare.cz/8210483/ac17uhd.part14.rar
http://fastshare.cz/8215234/ac17uhd.part15.rar
http://fastshare.cz/8219599/ac17uhd.part16.rar
http://fastshare.cz/8220061/ac17uhd.part17.rar
http://fastshare.cz/8220653/ac17uhd.part18.rar
http://fastshare.cz/8223648/ac17uhd.part19.rar
Balené bez kompresie. Bez hesla. Pridaný záznam pre opravu dát 5%.

Odpovědět

Zpět na „Filmy 4K UHD v CZ/SK.“