Kup si zde reklamu

Přihlásit se  •  Registrovat


Bruce Springsteen and the E Street Band: Live in New York City (2001)

Koncerty a živá vystoupení.

Moderátoři: owerkill, becher

Odpovědět
Uživatelský avatar
Schubo
Sponzor
Sponzor
Příspěvky: 115
Registrován: 21 čer 2015 00:35
Bydliště: Považská Bystrica

Bruce Springsteen and the E Street Band: Live in New York City (2001)

Příspěvek od Schubo » 20 zář 2017 19:02


Bruce Springsteen & the E Street Band: Live in New York City (2001) Full DVD9 + DVD5

Obrázek

Hudební / Dokumentární
USA, 2001, 190 min


ČSFD / IMBd:

Kód: Vybrat vše

https://www.csfd.cz/film/156737-bruce-springsteen-and-the-e-street-band-live-in-new-york-city/komentare/
http://www.imdb.com/title/tt0291775/?ref_=fn_tt_tt_49
Režie: Chris Hilson
Hrají: Bruce Springsteen, Steven Van Zandt
Střih: Thom Zimny

Obsah:
DVD "Bruce Springsteen & The E Street Band - Live In New York City" přináší vynikající záznam koncertu z Madison Square Garden, který je především dokumentem neutuchající a živelné rockové energie na pódiu. Pětadvacet skladeb je dokonce umístěno na dvou nosičích.

Bruce Springsteen a jeho doprovodná skupina E Street Band podnikli po dlouhých deseti letech společné koncertní turné, jež vyvrcholilo deseti koncerty ve slavné Madison Square Garden. Televizní společnost HBO zachytila poslední dvě vystoupení, odvysílaný záznam pak obdržel šest nominací na prestižní televizní ceny Emmy. Po shlédnutí DVD "Live In New York City" nezbývá než dodat, že zcela po právu, neboť koncert i jeho zpracování je vynikající.

První disk DVD obsahuje čtrnáct skladeb tak, jak byly odvysílány, druhý disk pak doplňuje dalších jedenáct neuvedených písní do délky celého koncertu, jenž trval bezmála tři hodiny. Taková délka vystoupení je pro Springsteena příznačná již od poloviny sedmdesátých let, kdy jej publicista (a později i Springsteenův producent) John Landau označil za "budoucnost rock and rollu". Ty tři hodiny ale nejsou jen nějakým pidlikáním a procházkou po pódiu, nasazení a energie sálající z Bosse a jeho vynikajících spoluhráčů je neutuchající. Je zde nemálo okamžiků, které berou dech či způsobují mrazení v zádech, zejména prostřední část prvního disku ("Youngstown", "Murder Incorporated", "Badlands" spojené bez přestávky) nedává posluchači vydechnout. Slavná "Born In The USA" je zde v úplně nepoznatelné akustické verzi, jen Boss s kytarou. Zdaleka nezazněly všechny Springsteenovy největší hity, vždyť chybí "Tunnel Of Love", "Philadelphia", "Human Touch", "Cover Me" a další. Osmnáctiminutová (!) "Tenth Avenue Freeze-Out" obsahuje nepopsatelné představení kapely - Springsteen se převtělil do role kazatele a píseň mu slouží jako spirituál oslavující hudbu. Naprostá většina skladeb je postavená na hutném zvuku celé kapely a je protažena do mnohem delších verzí než u originálních nahrávek. Publikum je zcela vtaženo do představení a prostě musí Springsteenovi věřit jeho skutečnost, úsilí a tvrdou práci na pódiu - jestli ten člověk může po takovém koncertu normálně mluvit, je to neuvěřitelné, nemluvě o litrech potu, které ždíme přímo na jevišti ze své košile. Je to úžasné pokoukání, tahle opravdovost a upřímnost by se měla přednášet jako studijní materiál.

Záznam koncertu je na DVD doplněn patnáctiminutovým dokumentem obsahujícím rozhovory se členy kapely a celkem zbytečnou fotogalerií. Bonusů tedy není mnoho, ale přesto se jedná o výborné koncertní DVD. Springsteen u nás vystupoval v roce 1995 pouze sám s kytarou a společný koncert s E Street Bandem by určitě patřil k vrcholným událostem, na něž se nezapomíná. Zatím nám musí stačit aspoň toto skvělé DVD.
Recenze - Pavel Parikrupa

Track Listing:

Kód: Vybrat vše

1. DVD (koncert):

1. Program Start
2. My Love Will Not Let You Down
3. Prove It All Night
4. Two Hearts
5. Atlantic City
6. Mansion On The Hill
7. The River
8. Youngstown
9. Murder Incorporated
10. Bandlands
11. Out In The Street
12. Tenth Avenue Freeze-out
13. Born To Run
14. Land Of Hope And Dreams
15. American Skin (41 Shots)
Bonusy:
New York City Serenade (19:44 min.)
Photo Gallery

2. DVD (koncert):

1. Program Start
2. Backstreets
3. Don´t Look Back
4. Darkness On The Edge Of Town
5. Lost In The Flood
6. Born In The U.S.A.
7. Jungleland
8. Light Of Day
9. The Promise
10. Thunder Road
11. Ramrod
12. If I Should Fall Behind
13. Credits
Mediainfo:

Kód: Vybrat vše

General
Complete name                            : E:\HBO_LIVE_DISC_ONE\VIDEO_TS\VTS_01_1.VOB
Format                                   : MPEG-PS
File size                                : 1 024 MiB
Duration                                 : 20 min 5 s
Overall bit rate mode                    : Variable
Overall bit rate                         : 7 125 kb/s

Video
ID                                       : 224 (0xE0)
Format                                   : MPEG Video
Format version                           : Version 2
Format profile                           : Main@Main
Format settings, BVOP                    : Yes
Format settings, Matrix                  : Custom
Format settings, GOP                     : M=3, N=12
Format settings, picture structure       : Frame
Duration                                 : 20 min 5 s
Bit rate mode                            : Variable
Bit rate                                 : 4 999 kb/s
Maximum bit rate                         : 9 800 kb/s
Width                                    : 720 pixels
Height                                   : 576 pixels
Display aspect ratio                     : 16:9
Frame rate                               : 25.000 FPS
Standard                                 : PAL
Color space                              : YUV
Chroma subsampling                       : 4:2:0
Bit depth                                : 8 bits
Scan type                                : Interlaced
Scan order                               : Top Field First
Compression mode                         : Lossy
Bits/(Pixel*Frame)                       : 0.482
Stream size                              : 718 MiB (70%)

Audio #1
ID                                       : 189 (0xBD)-128 (0x80)
Format                                   : AC-3
Format/Info                              : Audio Coding 3
Format settings, Endianness              : Big
Muxing mode                              : DVD-Video
Duration                                 : 20 min 5 s
Bit rate mode                            : Constant
Bit rate                                 : 448 kb/s
Channel(s)                               : 6 channels
Channel positions                        : Front: L C R, Side: L R, LFE
Sampling rate                            : 48.0 kHz
Frame rate                               : 31.250 FPS (1536 SPF)
Bit depth                                : 16 bits
Compression mode                         : Lossy
Stream size                              : 64.4 MiB (6%)
Service kind                             : Complete Main

Audio #2
ID                                       : 189 (0xBD)-161 (0xA1)
Format                                   : PCM
Format settings, Endianness              : Big
Format settings, Sign                    : Signed
Muxing mode                              : DVD-Video
Duration                                 : 20 min 4 s
Bit rate mode                            : Constant
Bit rate                                 : 1 536 kb/s
Channel(s)                               : 2 channels
Sampling rate                            : 48.0 kHz
Bit depth                                : 16 bits
Stream size                              : 221 MiB (22%)

Menu
DVD Info:
Menu: Áno
Bonusy: Na DVD 1
Obraz: 16:9
Zvuk: anglický 5.1, anglický LPCM 2.0
Titulky: Neobsahuje
Veľkosť: 6,82 / 3,82 GB
Kvalita DVD: bez kompresie
Obal/Potlač: Áno/Áno

Webshare:

Kód: Vybrat vše

https://webshare.cz/file/1Sy2va1xl4/bruce-springsteen-the-e-street-band-live-in-new-york-city-2001-2fulldvd-part1-rar
https://webshare.cz/file/32h570S7ef/bruce-springsteen-the-e-street-band-live-in-new-york-city-2001-2fulldvd-part2-rar
https://webshare.cz/file/479784Cx7m/bruce-springsteen-the-e-street-band-live-in-new-york-city-2001-2fulldvd-part3-rar
https://webshare.cz/file/6wa56u36e5/bruce-springsteen-the-e-street-band-live-in-new-york-city-2001-2fulldvd-part4-rar
https://webshare.cz/file/5G74H830b4/bruce-springsteen-the-e-street-band-live-in-new-york-city-2001-2fulldvd-part5-rar
https://webshare.cz/file/3141mD5bk4/bruce-springsteen-the-e-street-band-live-in-new-york-city-2001-2fulldvd-part6-rar
https://webshare.cz/file/3vW36f4xdg/bruce-springsteen-the-e-street-band-live-in-new-york-city-2001-2fulldvd-part7-rar
https://webshare.cz/file/4mjmh4833k/bruce-springsteen-the-e-street-band-live-in-new-york-city-2001-2fulldvd-part8-rar
Ulož.to:

Kód: Vybrat vše

https://ulozto.sk/!6kKArNtuVTKX/bruce-springsteen-the-e-street-band-live-in-new-york-city-2001-2fulldvd-part1-rar
https://ulozto.sk/!WTaMsDIdJcuv/bruce-springsteen-the-e-street-band-live-in-new-york-city-2001-2fulldvd-part2-rar
https://ulozto.sk/!34OjcVEFfRKr/bruce-springsteen-the-e-street-band-live-in-new-york-city-2001-2fulldvd-part3-rar
https://ulozto.sk/!QqSSbVqUeokK/bruce-springsteen-the-e-street-band-live-in-new-york-city-2001-2fulldvd-part4-rar
https://ulozto.sk/!LJL0h1m2SKiY/bruce-springsteen-the-e-street-band-live-in-new-york-city-2001-2fulldvd-part5-rar
https://ulozto.sk/!SZ5r8vh1Zduz/bruce-springsteen-the-e-street-band-live-in-new-york-city-2001-2fulldvd-part6-rar
https://ulozto.sk/!DjJzRc3lASrH/bruce-springsteen-the-e-street-band-live-in-new-york-city-2001-2fulldvd-part7-rar
https://ulozto.sk/!liXXilU4vq3e/bruce-springsteen-the-e-street-band-live-in-new-york-city-2001-2fulldvd-part8-rar
Linky sa dajú kombinovať.
Pridaný záznam na opravu dát 5%.
Moje DVD uploady sú čisté kópie originálov, bez kompresie a bez hesla.

Odpovědět

Zpět na „DVD FULL KONCERTY“