Kup si zde reklamu

Přihlásit se  •  Registrovat


Doors: Soundstage Performances, The (2002)

Koncerty a živá vystoupení.

Moderátoři: owerkill, becher

Odpovědět
Uživatelský avatar
Schubo
Sponzor
Sponzor
Příspěvky: 102
Registrován: 21 čer 2015 00:35
Bydliště: Považská Bystrica

Doors: Soundstage Performances, The (2002)

Příspěvek od Schubo » 14 zář 2017 10:35


The Doors: Soundstage Performances (2002) Full DVD

Obrázek

Hudební / Dokumentární
USA, 2002, 120 min


ČSFD / IMBd / FDb:

Kód: Vybrat vše

https://www.csfd.cz/film/255675-doors-soundstage-performances-the/prehled/
http://www.imdb.com/title/tt0888493/?ref_=fn_al_tt_1
https://www.fdb.cz/film/the-doors-soundstage-performances/90416
Režie: Jack Ofield
Hrají: John Densmore, Ray Manzarek, Robby Krieger, Jim Morrison, Sheryl Crow, Chris Isaak, Tom Petty, Brian McKnight

Info o nahrávke:
První část na tomto disku pochází z počátků Doors z kanadské TV show Introduction, Toronto 1967 (The end performance), následuje černobílý záznam, kdy byly Doors na vrcholu své slávy z evropského turné Europe 1968 (Denmark Tv Performance), závěr DVD patří barevnému vystoupení v New Yorku z roku 1969 (PBS Critique Performance), The Doors Talk 2002 (The Doors and the 60's, Europe-Denmark 1968, The Miami Concert, PBS Critique 1969). Úplně na samém konci jsou komentáře zbývajících (žijících) členů k jednotlivým písním označených jako The Songs. Jako bonus jsou na disku přiřazeny fotografie a biografie.

Track Listing:

Kód: Vybrat vše

1. The End
2. Whiskey Bar / Alabama Song
3. Back Door Man
4. Texas Radio & The Big Beat (The WASP) 
5. Love Me Two Times
6. When the Music´s Over
7. Unknown Soldier
8. Tell All The People
9. Back Door Man
10. Wishful Sinful
11. Build Me A Woman
12. The Soft Parade
Mediainfo:

Kód: Vybrat vše

General
Complete name                            : E:\DOORS_PAL\VIDEO_TS\VTS_01_1.VOB
Format                                   : MPEG-PS
File size                                : 1 024 MiB
Duration                                 : 17 min 56 s
Overall bit rate mode                    : Variable
Overall bit rate                         : 7 977 kb/s

Video
ID                                       : 224 (0xE0)
Format                                   : MPEG Video
Format version                           : Version 2
Format profile                           : Main@Main
Format settings, BVOP                    : Yes
Format settings, Matrix                  : Custom
Format settings, GOP                     : M=3, N=12
Format settings, picture structure       : Frame
Duration                                 : 17 min 56 s
Bit rate mode                            : Variable
Bit rate                                 : 5 669 kb/s
Maximum bit rate                         : 9 800 kb/s
Width                                    : 720 pixels
Height                                   : 576 pixels
Display aspect ratio                     : 4:3
Frame rate                               : 25.000 FPS
Standard                                 : PAL
Color space                              : YUV
Chroma subsampling                       : 4:2:0
Bit depth                                : 8 bits
Scan type                                : Interlaced
Scan order                               : Top Field First
Compression mode                         : Lossy
Bits/(Pixel*Frame)                       : 0.547
Time code of first frame                 : 00:00:00:00
Time code source                         : Group of pictures header
GOP, Open/Closed                         : Closed
Stream size                              : 728 MiB (71%)

Audio #1
ID                                       : 189 (0xBD)-128 (0x80)
Format                                   : AC-3
Format/Info                              : Audio Coding 3
Format settings, Endianness              : Big
Muxing mode                              : DVD-Video
Duration                                 : 17 min 56 s
Bit rate mode                            : Constant
Bit rate                                 : 448 kb/s
Channel(s)                               : 6 channels
Channel positions                        : Front: L C R, Side: L R, LFE
Sampling rate                            : 48.0 kHz
Frame rate                               : 31.250 FPS (1536 SPF)
Bit depth                                : 16 bits
Compression mode                         : Lossy
Stream size                              : 57.5 MiB (6%)
Service kind                             : Complete Main

Audio #2
ID                                       : 189 (0xBD)-129 (0x81)
Format                                   : AC-3
Format/Info                              : Audio Coding 3
Format settings, Endianness              : Big
Muxing mode                              : DVD-Video
Duration                                 : 17 min 56 s
Bit rate mode                            : Constant
Bit rate                                 : 192 kb/s
Channel(s)                               : 2 channels
Channel positions                        : Front: L R
Sampling rate                            : 48.0 kHz
Frame rate                               : 31.250 FPS (1536 SPF)
Bit depth                                : 16 bits
Compression mode                         : Lossy
Stream size                              : 24.6 MiB (2%)
Service kind                             : Complete Main

Audio #3
ID                                       : 189 (0xBD)-138 (0x8A)
Format                                   : DTS
Format/Info                              : Digital Theater Systems
Mode                                     : 16
Format settings, Endianness              : Big
Muxing mode                              : DVD-Video
Duration                                 : 17 min 56 s
Bit rate mode                            : Constant
Bit rate                                 : 1 510 kb/s
Channel(s)                               : 6 channels
Channel positions                        : Front: L C R, Side: L R, LFE
Sampling rate                            : 48.0 kHz
Frame rate                               : 93.750 FPS (512 SPF)
Bit depth                                : 16 bits
Compression mode                         : Lossy
Stream size                              : 194 MiB (19%)

Menu
DVD Info:
Menu: Áno
Bonusy: Áno
Obraz: 4:3
Zvuk: anglický 2.0, anglický 5.1, anglický DTS
Titulky: Neobsahuje
Veľkosť: 6,97 GB
Kvalita DVD: bez kompresie
Obal/Potlač: Áno/Áno

Webshare:

Kód: Vybrat vše

https://webshare.cz/file/54b6xf36p2/doors-soundstage-performances-the-2002-fulldvd-part1-rar
https://webshare.cz/file/s818s55f5z/doors-soundstage-performances-the-2002-fulldvd-part2-rar
https://webshare.cz/file/1z64cs2pn3/doors-soundstage-performances-the-2002-fulldvd-part3-rar
https://webshare.cz/file/4F454818s6/doors-soundstage-performances-the-2002-fulldvd-part4-rar
https://webshare.cz/file/22N7cw1651/doors-soundstage-performances-the-2002-fulldvd-part5-rar
Ulož.to:

Kód: Vybrat vše

https://ulozto.sk/!TWhrjdUW3hWL/doors-soundstage-performances-the-2002-fulldvd-part1-rar
https://ulozto.sk/!d0MU6guXLEAK/doors-soundstage-performances-the-2002-fulldvd-part2-rar
https://ulozto.sk/!M4NAHOCFywMb/doors-soundstage-performances-the-2002-fulldvd-part3-rar
https://ulozto.sk/!eSfT8kGdSd9U/doors-soundstage-performances-the-2002-fulldvd-part4-rar
https://ulozto.sk/!MHA5RQOz6dOZ/doors-soundstage-performances-the-2002-fulldvd-part5-rar
Linky sa dajú kombinovať.
Pridaný záznam na opravu dát 5%.
Moje DVD uploady sú čisté kópie originálov, bez kompresie a bez hesla.

Odpovědět

Kdo je online

Uživatelé prohlížející si toto fórum: Žádní registrovaní uživatelé a 1 host