Kup si zde reklamu

Přihlásit se  •  Registrovat


Offspring - Complete music video collection, The (2005)

Koncerty a živá vystoupení.

Moderátoři: owerkill, becher

Odpovědět
Uživatelský avatar
Schubo
Sponzor
Sponzor
Příspěvky: 102
Registrován: 21 čer 2015 00:35
Bydliště: Považská Bystrica

Offspring - Complete music video collection, The (2005)

Příspěvek od Schubo » 13 zář 2017 02:07


The Offspring - Complete music video collection (2005) Full DVD

Obrázek

Hudební
USA, 2005, 150 min


ČSFD / IMBd / FDb:

Kód: Vybrat vše

https://www.csfd.cz/film/270601-offspring-complete-music-video-collection-the/prehled/
http://www.imdb.com/title/tt0477187/?ref_=fn_al_tt_1
https://www.fdb.cz/film/the-offspring-complete-music-video-collection/94372
Režie: Samuel Bayer, Jonathan Dayton, Nigel Dick, Valerie F… (více)
Kamera: James Hawkinson, Christopher Soos, Ramsey Nickell
Hrají: Dexter Holland, Zooey Deschanel, Redman
Střih: Lance Pereira

Info o nahrávke:
Kalifornská punkrocková skupina The Offspring vydala v roce 2005 ucelený přehled všech svých videoklipů chronologicky seřazených podle data natočení. Na DVD se mezi řadou bonusů nachází rovněž koncertní podoba jedenácti songů.

Track Listing:

Kód: Vybrat vše

1. Come Out And Play
2. Self Esteem
3. Gotta Get Away
4. All I Want
5. Gone Away
6. The Meaning Of Life
7. I Choose
8. Pretty Fly (For A White Guy) 
9. Why Don't You Get A Job? 
10. The Kids Aren't Alright
11. She's Got Issues
12. Original Prankster
13. Want You Bad
14. Defy You
15. Hit That
16. (Can't Get My) Head Around You
17. Can't Repeat

Bonusy:	Discography
2 Extra Videos
11 Live Performances
The Making Of Da Hui
Storyboard Gallery
Commentary By The Band
and more...
Mediainfo:

Kód: Vybrat vše

General
Complete name                            : E:\THE_OFFSPRING\VIDEO_TS\VTS_01_1.VOB
Format                                   : MPEG-PS
File size                                : 1 024 MiB
Duration                                 : 16 min 56 s
Overall bit rate mode                    : Variable
Overall bit rate                         : 8 445 kb/s

Video
ID                                       : 224 (0xE0)
Format                                   : MPEG Video
Format version                           : Version 2
Format profile                           : Main@Main
Format settings, BVOP                    : Yes
Format settings, Matrix                  : Custom
Format settings, GOP                     : M=3, N=15
Format settings, picture structure       : Frame
Duration                                 : 16 min 56 s
Bit rate mode                            : Variable
Bit rate                                 : 6 101 kb/s
Maximum bit rate                         : 6 500 kb/s
Width                                    : 720 pixels
Height                                   : 576 pixels
Display aspect ratio                     : 4:3
Frame rate                               : 25.000 FPS
Standard                                 : PAL
Color space                              : YUV
Chroma subsampling                       : 4:2:0
Bit depth                                : 8 bits
Scan type                                : Interlaced
Scan order                               : Top Field First
Compression mode                         : Lossy
Bits/(Pixel*Frame)                       : 0.588
Time code of first frame                 : 00:59:59:09
Time code source                         : Group of pictures header
GOP, Open/Closed                         : Closed
Stream size                              : 739 MiB (72%)

Audio #1
ID                                       : 189 (0xBD)-129 (0x81)
Format                                   : AC-3
Format/Info                              : Audio Coding 3
Format settings, Endianness              : Big
Muxing mode                              : DVD-Video
Duration                                 : 16 min 56 s
Bit rate mode                            : Constant
Bit rate                                 : 448 kb/s
Channel(s)                               : 6 channels
Channel positions                        : Front: L C R, Side: L R, LFE
Sampling rate                            : 48.0 kHz
Frame rate                               : 31.250 FPS (1536 SPF)
Bit depth                                : 16 bits
Compression mode                         : Lossy
Stream size                              : 54.3 MiB (5%)
Service kind                             : Complete Main

Audio #2
ID                                       : 189 (0xBD)-130 (0x82)
Format                                   : AC-3
Format/Info                              : Audio Coding 3
Format settings, Endianness              : Big
Muxing mode                              : DVD-Video
Duration                                 : 16 min 56 s
Bit rate mode                            : Constant
Bit rate                                 : 192 kb/s
Channel(s)                               : 2 channels
Channel positions                        : Front: L R
Sampling rate                            : 48.0 kHz
Frame rate                               : 31.250 FPS (1536 SPF)
Bit depth                                : 16 bits
Compression mode                         : Lossy
Stream size                              : 23.3 MiB (2%)
Service kind                             : Complete Main

Audio #3
ID                                       : 189 (0xBD)-160 (0xA0)
Format                                   : PCM
Format settings, Endianness              : Big
Format settings, Sign                    : Signed
Muxing mode                              : DVD-Video
Duration                                 : 16 min 56 s
Bit rate mode                            : Constant
Bit rate                                 : 1 536 kb/s
Channel(s)                               : 2 channels
Sampling rate                            : 48.0 kHz
Bit depth                                : 24 bits
Stream size                              : 186 MiB (18%)

Menu
DVD Info:
Menu: Áno
Bonusy: Áno
Obraz: 4:3
Zvuk: anglický LPCM 2.0, anglický 5.1, anglický 2.0 (komentár k videoklipom)
Titulky: Neobsahuje
Veľkosť: 6,92 GB
Kvalita DVD: bez kompresie
Obal/Potlač: Ano/Ano

Webshare:

Kód: Vybrat vše

https://webshare.cz/file/2y47nh4e27/the-offspring-complete-music-video-collection-2005-fulldvd-part1-rar
https://webshare.cz/file/39q4cg7oW5/the-offspring-complete-music-video-collection-2005-fulldvd-part2-rar
https://webshare.cz/file/5wK2G56rro/the-offspring-complete-music-video-collection-2005-fulldvd-part3-rar
https://webshare.cz/file/3hwA77an26/the-offspring-complete-music-video-collection-2005-fulldvd-part4-rar
https://webshare.cz/file/7aa4il4zW2/the-offspring-complete-music-video-collection-2005-fulldvd-part5-rar
Ulož.to:

Kód: Vybrat vše

https://ulozto.sk/!hTxV8tJgooEU/the-offspring-complete-music-video-collection-2005-fulldvd-part1-rar
https://ulozto.sk/!b1ePfHg1LTdX/the-offspring-complete-music-video-collection-2005-fulldvd-part2-rar
https://ulozto.sk/!KE797xSD3pBk/the-offspring-complete-music-video-collection-2005-fulldvd-part3-rar
https://ulozto.sk/!Gy94snTHiDT9/the-offspring-complete-music-video-collection-2005-fulldvd-part4-rar
https://ulozto.sk/!YmyCp3Sojb9U/the-offspring-complete-music-video-collection-2005-fulldvd-part5-rar
Linky sa dajú kombinovať.
Pridaný záznam na opravu dát 5%.
Moje DVD uploady sú čisté kópie originálov, bez kompresie a bez hesla.

Odpovědět

Kdo je online

Uživatelé prohlížející si toto fórum: Žádní registrovaní uživatelé a 1 host