Stránka 1 z 1

Bruce Springsteen: Blood Brothers (1996)

Napsal: 03 zář 2017 00:18
od Schubo

Bruce Springsteen: Pokrevní bratři (1996) Full DVD

Obrázek

Dokumentární
USA, 1996, 90 min


ČSFD / IMBd:

Kód: Vybrat vše

https://www.csfd.cz/film/73534-bruce-springsteen-pokrevni-bratri/komentare/ 
http://www.imdb.com/title/tt0283946/?ref_=fn_al_tt_1 
Réžia: Ernie Fritz
Kamera: Ernie Fritz, John Clemons, Mike Garofalo, Larry Planet, Patrick, Rousseau
Hrajú: Bruce Springsteen, Roy Bittan, Clarence Clemons, Danny Federici, Nils Lofgren, Patti Scialfa, Garry Tallent, Max Weinberg and Steven Van Zandt
Producenti: Jon Landau, Barbara Carr, Jack Gulick, Lee Rolontz
Strih: Kathleen Dougherty, Ernie Fritz
Zvuk: Bob Clearmountain, Bob Ludwig

Obsah:
Unikátny dokument z nahrávania Springsteenovho albumu Greatest Hits v marci 1996!
SKLADBY:1.Blood Brothers2.High Hopes3.This Hard Land4.Back In Your Arms Again5.Without You6.Murder Inc (video)7.Secret Garden (video)

Mediainfo:

Kód: Vybrat vše

General
Complete name                            : E:\Bruce Springsteen - Blood Brothers (1996) FullDVD\DVD_VIDEO\VIDEO_TS\VTS_01_1.VOB
Format                                   : MPEG-PS
File size                                : 1 024 MiB
Duration                                 : 14 min 58 s
Overall bit rate mode                    : Variable
Overall bit rate                         : 9 563 kb/s

Video
ID                                       : 224 (0xE0)
Format                                   : MPEG Video
Format version                           : Version 2
Format profile                           : Main@Main
Format settings, BVOP                    : Yes
Format settings, Matrix                  : Custom
Format settings, GOP                     : M=3, N=12
Format settings, picture structure       : Frame
Duration                                 : 14 min 58 s
Bit rate mode                            : Variable
Bit rate                                 : 7 389 kb/s
Maximum bit rate                         : 9 800 kb/s
Width                                    : 720 pixels
Height                                   : 576 pixels
Display aspect ratio                     : 4:3
Frame rate                               : 25.000 FPS
Standard                                 : PAL
Color space                              : YUV
Chroma subsampling                       : 4:2:0
Bit depth                                : 8 bits
Scan type                                : Interlaced
Scan order                               : Top Field First
Compression mode                         : Lossy
Bits/(Pixel*Frame)                       : 0.713
Stream size                              : 791 MiB (77%)

Audio #1
ID                                       : 189 (0xBD)-129 (0x81)
Format                                   : AC-3
Format/Info                              : Audio Coding 3
Format settings, Endianness              : Big
Muxing mode                              : DVD-Video
Duration                                 : 14 min 58 s
Bit rate mode                            : Constant
Bit rate                                 : 448 kb/s
Channel(s)                               : 6 channels
Channel positions                        : Front: L C R, Side: L R, LFE
Sampling rate                            : 48.0 kHz
Frame rate                               : 31.250 FPS (1536 SPF)
Bit depth                                : 16 bits
Compression mode                         : Lossy
Stream size                              : 48.0 MiB (5%)
Service kind                             : Complete Main

Audio #2
ID                                       : 189 (0xBD)-160 (0xA0)
Format                                   : PCM
Format settings, Endianness              : Big
Format settings, Sign                    : Signed
Muxing mode                              : DVD-Video
Duration                                 : 14 min 57 s
Bit rate mode                            : Constant
Bit rate                                 : 1 536 kb/s
Channel(s)                               : 2 channels
Sampling rate                            : 48.0 kHz
Bit depth                                : 16 bits
Stream size                              : 164 MiB (16%)

Text
ID                                       : 189 (0xBD)-32 (0x20)
Format                                   : RLE
Format/Info                              : Run-length encoding
Muxing mode                              : DVD-Video
Duration                                 : 14 min 53 s
Delay relative to video                  : 4 s 800 ms

Menu
DVD Info:
Menu: Áno
Bonusy: Áno
Obraz: 4:3
Zvuk: anglický PCM 2.0, anglický 5.1
Titulky: anglické
Veľkosť: 6,34 GB
Kvalita DVD: bez kompresie
Obal/Potlač: Áno/Áno

Webshare:

Kód: Vybrat vše

https://webshare.cz/file/51m10316N6/bruce-springsteen-blood-brothers-1996-fulldvd-part1-rar
https://webshare.cz/file/9M3e93o0G1/bruce-springsteen-blood-brothers-1996-fulldvd-part2-rar
https://webshare.cz/file/131cg6Ti2o/bruce-springsteen-blood-brothers-1996-fulldvd-part3-rar
https://webshare.cz/file/38z5pjWy1J/bruce-springsteen-blood-brothers-1996-fulldvd-part4-rar
https://webshare.cz/file/6EN49514o2/bruce-springsteen-blood-brothers-1996-fulldvd-part5-rar
Ulož.to:

Kód: Vybrat vše

https://ulozto.sk/!SZPxDmNKiOrC/bruce-springsteen-blood-brothers-1996-fulldvd-part1-rar
https://ulozto.sk/!uCjUXANcs3Ig/bruce-springsteen-blood-brothers-1996-fulldvd-part2-rar
https://ulozto.sk/!GcXC7cB7Ns7q/bruce-springsteen-blood-brothers-1996-fulldvd-part3-rar
https://ulozto.sk/!ntMTdznKm5yZ/bruce-springsteen-blood-brothers-1996-fulldvd-part4-rar
https://ulozto.sk/!AY630tjU12ly/bruce-springsteen-blood-brothers-1996-fulldvd-part5-rar
Linky sa dajú kombinovať.
Pridaný záznam na opravu dát 5%.
Moje DVD uploady sú čisté kópie originálov, bez kompresie a bez hesla.