File & Image Uploader Kup si zde reklamu
Kup si zde reklamu

Přihlásit se


Legendy Divokého západu / The Wild West (2006)

IMAX, BBC, National Geographic, atd.

Moderátor: owerkill

Odpovědět
Uživatelský avatar
Schubo
Sponzor
Sponzor
Příspěvky: 120
Registrován: 21 čer 2015 00:35
Bydliště: Považská Bystrica

Legendy Divokého západu / The Wild West (2006)

Příspěvek od Schubo » 29 říj 2017 13:05


Legendy Divokého západu (2006) 3x Full DVD

Obrázek

Dokumentární / Drama / Western / Životopisný
Velká Británie, 2006, 3x49 min


ČSFD / IMBd / FDb:

Kód: Vybrat vše

https://www.csfd.cz/film/233963-legendy-divokeho-zapadu/komentare/#
http://www.imdb.com/title/tt0968732/
https://www.fdb.cz/film/legendy-divokeho-zapadu-the-wild-west/144116
Režie: Tim Robinson, David Stewart
Scénář: Colin Swash
Kamera: Neville Kidd, Graham Smith
Hrají: Michael Praed, Liam Cunningham, Toby Stephens, Philip Rosch, Christopher Fulford, Finlay Robertson, Peter Brooke, David Leon, Clive Russell, Richard Hope, Sam Heughan, Stephen Billington, Nigel Lindsay, Sean Power, Alan Cox, Damian O'Hare, Moses Brings Plenty
Kostýmy: Alison Forbes-Meyler

Obsah:
Britský dokumentární cyklus. Názvy jednotlivých částí:

1. Custerův poslední boj
Zkáza legendární Sedmé kavalerie u Little Bighornu je tragickou kapitolou v dějinách Spojených států. Jméno generála Custera se stalo synonymem marnivé ctižádosti a velitelské ztřeštěnosti. Poslední historické výzkumy však odhalily překvapivou pravdu. Oproti všem dosavadním představám měl Custer zřejmě vyrovnanou šanci zvítězit a jeho rozhodování zdaleka nebylo neuvážené. Vycházel z jasného záměru, který nebyl nijak přehnaně ctižádostivý. Americký historik Michael Donahue, který už dvacet let zkoumá dostupné dokumenty i dávné bojiště, je přesvědčen, že Custer stál na prahu pozoruhodného vítězství. Archeologické nálezy, indiánské piktogramy, ústní svědectví i zápisy vyšetřujícího soudu popisují proslulou bitvu poněkud jinak.

2. Billy Kid
V sedmdesátých letech 19. století byl americký Divoký západ rejdištěm vyděděnců a banditů. Amerika se tehdy vzpamatovávala z útrap občanské války a řídce osídlený kraj bez komunikací i bez účinného prosazování práva byl světem, kde rozhodovala síla a odvaha. Jedním z nejznámějších pistolníků v dějinách Divokého západu byl Billy Kid. Vraždy, kterých se dopustil, z něj udělaly nejhledanějšího muže v zemi. Za zabití okresního šerifa byl odsouzen k smrti. Přesto však mu guvernér státu Nové Mexiko Lew Wallace tajně slíbil milost. Proč? Nemohlo to být tak, že se skutečný Billy značně lišil od zlosyna, jakým ho vylíčily legendy? Zajímavé je, že současný guvernér státu uvažuje o obnovení procesu a přezkoumání důkazů, které vedly k Billyho odsouzení.

3. Přestřelka u O.K. Corralu
Přestřelka u O.K. Corralu je nejslavnější pistolnickou "střílečkou" v dějinách Divokého západu. Po pouhých třiceti vteřinách vražedné střelby zůstali na zemi tři mrtví a dva těžce zranění muži. V té šílené půlminutě se zrodila legenda. Legenda o čestném a spravedlivém muži zákona Wyattu Earpovi. Ale když se kouř ze střelného prachu rozptýlil, Earp už jako hrdina nevypadal. Byl naopak obviněn z vraždy a stanul před soudem, kde mu šlo o život. Byl Wyatt Earp opravdu vinen vraždou nevinných mužů? A v čem spočívala spravedlnost na Západě pionýrských časů? Mnohé události toho dne byly mytologizovány - a tak se historici snaží najít klíč k pravdě v dávno zapomenutém procesu, v zápisech soudů a dobových novinových zprávách.(oficiální text distributora)

Mediainfo:

Kód: Vybrat vše

General
Complete name                            : E:\LEGENDY_DIVOKEHO_ZAPADU_1\VIDEO_TS\VTS_02_1.VOB
Format                                   : MPEG-PS
File size                                : 1 024 MiB
Duration                                 : 19 min 25 s
Overall bit rate mode                    : Variable
Overall bit rate                         : 7 368 kb/s

Video
ID                                       : 224 (0xE0)
Format                                   : MPEG Video
Format version                           : Version 2
Format profile                           : Main@Main
Format settings, BVOP                    : Yes
Format settings, Matrix                  : Custom
Format settings, GOP                     : M=3, N=12
Format settings, picture structure       : Frame
Duration                                 : 19 min 25 s
Bit rate mode                            : Variable
Bit rate                                 : 6 326 kb/s
Maximum bit rate                         : 9 800 kb/s
Width                                    : 720 pixels
Height                                   : 576 pixels
Display aspect ratio                     : 16:9
Frame rate                               : 25.000 FPS
Standard                                 : PAL
Color space                              : YUV
Chroma subsampling                       : 4:2:0
Bit depth                                : 8 bits
Scan type                                : Interlaced
Scan order                               : Top Field First
Compression mode                         : Lossy
Bits/(Pixel*Frame)                       : 0.610
Time code of first frame                 : 00:00:00:00
Time code source                         : Group of pictures header
GOP, Open/Closed                         : Closed
Stream size                              : 879 MiB (86%)

Audio #1
ID                                       : 189 (0xBD)-128 (0x80)
Format                                   : AC-3
Format/Info                              : Audio Coding 3
Format settings, Endianness              : Big
Muxing mode                              : DVD-Video
Duration                                 : 19 min 25 s
Bit rate mode                            : Constant
Bit rate                                 : 448 kb/s
Channel(s)                               : 6 channels
Channel positions                        : Front: L C R, Side: L R, LFE
Sampling rate                            : 48.0 kHz
Frame rate                               : 31.250 FPS (1536 SPF)
Bit depth                                : 16 bits
Compression mode                         : Lossy
Stream size                              : 62.2 MiB (6%)
Service kind                             : Complete Main

Audio #2
ID                                       : 189 (0xBD)-129 (0x81)
Format                                   : AC-3
Format/Info                              : Audio Coding 3
Format settings, Endianness              : Big
Muxing mode                              : DVD-Video
Duration                                 : 19 min 25 s
Bit rate mode                            : Constant
Bit rate                                 : 448 kb/s
Channel(s)                               : 6 channels
Channel positions                        : Front: L C R, Side: L R, LFE
Sampling rate                            : 48.0 kHz
Frame rate                               : 31.250 FPS (1536 SPF)
Bit depth                                : 16 bits
Compression mode                         : Lossy
Stream size                              : 62.2 MiB (6%)
Service kind                             : Complete Main

Text
ID                                       : 189 (0xBD)-33 (0x21)
Format                                   : RLE
Format/Info                              : Run-length encoding
Muxing mode                              : DVD-Video

Menu
DVD Info:
Menu: Áno
Bonusy: Nie
Obraz: 16:9
Zvuk: český 5.1, anglický 5.1
Titulky: české
Veľkosť: 2,73 / 2,73 / 2,74 GB
Kvalita DVD: bez kompresie
Obal/Potlač: Áno/Áno

Webshare:

Kód: Vybrat vše

https://webshare.cz/file/2b94rG3K1w/legendy-divokeho-zapadu-1-2006-fulldvd-part1-rar
https://webshare.cz/file/17C45z1Wo7/legendy-divokeho-zapadu-1-2006-fulldvd-part2-rar

https://webshare.cz/file/4f4kt7FD7G/legendy-divokeho-zapadu-2-2006-fulldvd-part1-rar
https://webshare.cz/file/1rtqV24x6r/legendy-divokeho-zapadu-2-2006-fulldvd-part2-rar

https://webshare.cz/file/7oy2ymKE67/legendy-divokeho-zapadu-3-2006-fulldvd-part1-rar
https://webshare.cz/file/57w5U72T95/legendy-divokeho-zapadu-3-2006-fulldvd-part2-rar
Ulož.to:

Kód: Vybrat vše

https://ulozto.sk/!gc4HyODdUdka/legendy-divokeho-zapadu-1-2006-fulldvd-part1-rar
https://ulozto.sk/!LsRLGk8UAtnJ/legendy-divokeho-zapadu-1-2006-fulldvd-part2-rar

https://ulozto.sk/!av4NQnp47aid/legendy-divokeho-zapadu-2-2006-fulldvd-part1-rar
https://ulozto.sk/!08JYzdX3lbAV/legendy-divokeho-zapadu-2-2006-fulldvd-part2-rar

https://ulozto.sk/!Atl1RY49CEKi/legendy-divokeho-zapadu-3-2006-fulldvd-part1-rar
https://ulozto.sk/!yKOW6o6WytdC/legendy-divokeho-zapadu-3-2006-fulldvd-part2-rar
Linky sa dajú kombinovať.
Pridaný záznam na opravu dát 5%.
Moje DVD uploady sú čisté kópie originálov, bez kompresie a bez hesla.

Odpovědět

Zpět na „DVD FULL DOKUMENTY“