File & Image Uploader Kup si zde reklamu
Kup si zde reklamu

Přihlásit se


Malá Dorritka / Little Dorrit (2008)

Seriály a minisérie.

Moderátor: owerkill

Odpovědět
Uživatelský avatar
Schubo
Sponzor
Sponzor
Příspěvky: 120
Registrován: 21 čer 2015 00:35
Bydliště: Považská Bystrica

Malá Dorritka / Little Dorrit (2008)

Příspěvek od Schubo » 25 říj 2017 01:40


Malá Dorritka (2008) 4x Full DVD

Obrázek

Drama / Romantický / Historický
Velká Británie, 2008, 14x50 min


ČSFD / IMBd / FDb:

Kód: Vybrat vše

https://www.csfd.cz/film/246881-mala-dorritka/prehled/
http://www.imdb.com/title/tt1178522/
https://www.fdb.cz/serial/mala-dorritka-little-dorrit/40922
Režie: Diarmuid Lawrence, Dearbhla Walsh, Adam Smith
Předloha: Charles Dickens (kniha)
Scénář: Andrew Davies
Kamera: Alan Almond, Lukas Strebel, Owen McPolin
Hudba: John Lunn
Hrají: Claire Foy, Russell Tovey, Matthew MacFadyen, Tom Courtenay, Alun Armstrong, Judy Parfitt, Eddie Marsan, Emma Pierson, Andy Serkis, Rosie Cavaliero, Alex Wyndham, Amanda Redman, Eve Myles, Maxine Peake, Ruth Jones, Pam Ferris, Vincent Riotta, Annette Crosbie, Robert Hardy, Darren Boyd, Mackenzie Crook, James Fleet, Ron Cook, Zubin Varla, Georgia King, Bill Paterson, Laurence Belcher, Freema Agyeman, Sebastian Armesto, Arthur Darvill, Jason Watkins, Elliott Francis, Anton Lesser, Ian McElhinney, Bel Powley, Mark Kempner, Nicholas Blane, Philip Desmeules, David Verrey, Jonathan Slinger, Stephen Marcus, Imogen Bain, John Alderton, Janine Duvitski, Geoffrey McGivern, Nicholas Jones, Stuart Nurse, Geoffrey Whitehead
Střih: Philip Kloss, Nick Arthurs
Scénografie: James Merifield

Obsah:
Malá Amy Dorritová sa narodí vo väzení pre dlžníkov, v ktorom je uväznený jej otec spolu so svojou ženou a dcérou. Jedného dňa ponúkne pani Clennamová Dorrit prácu v domácnosti. Tam sa spriatelí s jej synom Arthurom, ktorý sa práve vrátil z ďalekých ciest ,aby odhalil rodinné tajomstvo. Všetko nasvedčuje tomu, že Amy svojim spôsobom zapadá do záhad spojených s tajomstvom jeho rodiny.(oficiální text distributora)

Mediainfo:

Kód: Vybrat vše

General
Complete name                            : E:\MALA_DORITKA_1\VIDEO_TS\VTS_02_1.VOB
Format                                   : MPEG-PS
File size                                : 1 024 MiB
Duration                                 : 20 min 43 s
Overall bit rate mode                    : Variable
Overall bit rate                         : 6 908 kb/s

Video
ID                                       : 224 (0xE0)
Format                                   : MPEG Video
Format version                           : Version 2
Format profile                           : Main@Main
Format settings, BVOP                    : Yes
Format settings, Matrix                  : Custom
Format settings, GOP                     : M=3, N=12
Format settings, picture structure       : Frame
Duration                                 : 20 min 43 s
Bit rate mode                            : Variable
Bit rate                                 : 5 874 kb/s
Maximum bit rate                         : 9 800 kb/s
Width                                    : 720 pixels
Height                                   : 576 pixels
Display aspect ratio                     : 16:9
Frame rate                               : 25.000 FPS
Standard                                 : PAL
Color space                              : YUV
Chroma subsampling                       : 4:2:0
Bit depth                                : 8 bits
Scan type                                : Interlaced
Scan order                               : Top Field First
Compression mode                         : Lossy
Bits/(Pixel*Frame)                       : 0.567
Time code of first frame                 : 00:00:00:00
Time code source                         : Group of pictures header
GOP, Open/Closed                         : Closed
Stream size                              : 871 MiB (85%)

Audio #1
ID                                       : 189 (0xBD)-128 (0x80)
Format                                   : AC-3
Format/Info                              : Audio Coding 3
Format settings, Endianness              : Big
Muxing mode                              : DVD-Video
Duration                                 : 20 min 43 s
Bit rate mode                            : Constant
Bit rate                                 : 448 kb/s
Channel(s)                               : 6 channels
Channel positions                        : Front: L C R, Side: L R, LFE
Sampling rate                            : 48.0 kHz
Frame rate                               : 31.250 FPS (1536 SPF)
Bit depth                                : 16 bits
Compression mode                         : Lossy
Stream size                              : 66.4 MiB (6%)
Service kind                             : Complete Main

Audio #2
ID                                       : 189 (0xBD)-129 (0x81)
Format                                   : AC-3
Format/Info                              : Audio Coding 3
Format settings, Endianness              : Big
Muxing mode                              : DVD-Video
Duration                                 : 20 min 43 s
Bit rate mode                            : Constant
Bit rate                                 : 448 kb/s
Channel(s)                               : 6 channels
Channel positions                        : Front: L C R, Side: L R, LFE
Sampling rate                            : 48.0 kHz
Frame rate                               : 31.250 FPS (1536 SPF)
Bit depth                                : 16 bits
Compression mode                         : Lossy
Stream size                              : 66.4 MiB (6%)
Service kind                             : Complete Main

Text
ID                                       : 189 (0xBD)-32 (0x20)
Format                                   : RLE
Format/Info                              : Run-length encoding
Muxing mode                              : DVD-Video

Menu
DVD Info:
Menu: Áno
Bonusy: Nie
Obraz: 16:9
Zvuk: český 5.1, anglický 5.1
Titulky: české
Veľkosť: 5,32 / 5,50 / 5,30 / 5,30 GB
Kvalita DVD: bez kompresie
Obal/Potlač: Áno/Áno

Webshare:

Kód: Vybrat vše

https://webshare.cz/file/1zs2it1lf1/mala-dorritka-2008-4x-fulldvd-part01-rar
https://webshare.cz/file/yn24s1Cx72/mala-dorritka-2008-4x-fulldvd-part02-rar
https://webshare.cz/file/1661li46v7/mala-dorritka-2008-4x-fulldvd-part03-rar
https://webshare.cz/file/w61w11T65h/mala-dorritka-2008-4x-fulldvd-part04-rar
https://webshare.cz/file/2cA5ftJh2h/mala-dorritka-2008-4x-fulldvd-part05-rar
https://webshare.cz/file/29q1oj3py1/mala-dorritka-2008-4x-fulldvd-part06-rar
https://webshare.cz/file/11W2It2mt2/mala-dorritka-2008-4x-fulldvd-part07-rar
https://webshare.cz/file/39c1C433a1/mala-dorritka-2008-4x-fulldvd-part08-rar
https://webshare.cz/file/66x62g69s1/mala-dorritka-2008-4x-fulldvd-part09-rar
https://webshare.cz/file/2mk4i66s27/mala-dorritka-2008-4x-fulldvd-part10-rar
https://webshare.cz/file/6vg7o6TX3y/mala-dorritka-2008-4x-fulldvd-part11-rar
https://webshare.cz/file/cg4j7P67kn/mala-dorritka-2008-4x-fulldvd-part12-rar
https://webshare.cz/file/6d64N736wa/mala-dorritka-2008-4x-fulldvd-part13-rar
https://webshare.cz/file/z667956w52/mala-dorritka-2008-4x-fulldvd-part14-rar
https://webshare.cz/file/5J96nv5697/mala-dorritka-2008-4x-fulldvd-part15-rar
Ulož.to:

Kód: Vybrat vše

https://ulozto.sk/!Xeu633LkPRsj/mala-dorritka-2008-4x-fulldvd-part01-rar
https://ulozto.sk/!YjgL3wy0VxKv/mala-dorritka-2008-4x-fulldvd-part02-rar
https://ulozto.sk/!lEqHTsarw8N0/mala-dorritka-2008-4x-fulldvd-part03-rar
https://ulozto.sk/!TYuBI5hYRuOH/mala-dorritka-2008-4x-fulldvd-part04-rar
https://ulozto.sk/!WXoSfw9LDGLS/mala-dorritka-2008-4x-fulldvd-part05-rar
https://ulozto.sk/!IYSqqdZ2DdeI/mala-dorritka-2008-4x-fulldvd-part06-rar
https://ulozto.sk/!rSTLsoNwmGYD/mala-dorritka-2008-4x-fulldvd-part07-rar
https://ulozto.sk/!DwCr9Wx4lygI/mala-dorritka-2008-4x-fulldvd-part08-rar
https://ulozto.sk/!TleMyTFLd5tS/mala-dorritka-2008-4x-fulldvd-part09-rar
https://ulozto.sk/!GKbPR1d16ze2/mala-dorritka-2008-4x-fulldvd-part10-rar
https://ulozto.sk/!w6b8sZODQEgf/mala-dorritka-2008-4x-fulldvd-part11-rar
https://ulozto.sk/!NQzhYd7QPuKi/mala-dorritka-2008-4x-fulldvd-part12-rar
https://ulozto.sk/!hrsswT5meVns/mala-dorritka-2008-4x-fulldvd-part13-rar
https://ulozto.sk/!R357qKH6P6ea/mala-dorritka-2008-4x-fulldvd-part14-rar
https://ulozto.sk/!HB20KZBSpcwh/mala-dorritka-2008-4x-fulldvd-part15-rar
Linky sa dajú kombinovať.
Pridaný záznam na opravu dát 5%.
Moje DVD uploady sú čisté kópie originálov, bez kompresie a bez hesla.

Odpovědět

Zpět na „DVD FULL SERIALY“