Kup si zde reklamu

Přihlásit se  •  Registrovat


Bídníci / Les misérables (2000)

Seriály a minisérie.

Moderátoři: owerkill, becher

Odpovědět
Uživatelský avatar
Schubo
Sponzor
Sponzor
Příspěvky: 102
Registrován: 21 čer 2015 00:35
Bydliště: Považská Bystrica

Bídníci / Les misérables (2000)

Příspěvek od Schubo » 01 zář 2017 11:06


Bídníci (2000) miniséria 4x Full DVD

Obrázek

Drama
Francie / Itálie / Španělsko / Německo, 2000, 4x90 min


ČSFD / IMBd / FDb:

Kód: Vybrat vše

https://www.csfd.cz/film/69850-bidnici/prehled/
http://www.imdb.com/title/tt0230534/?ref_=fn_al_tt_3
https://www.fdb.cz/film/bidnici-les-miserables/38283
Režie: Josée Dayan
Předloha: Victor Hugo (kniha)
Kamera: Willy Stassen
Hudba: Jean-Claude Petit
Hrají: Gérard Depardieu, Christian Clavier, John Malkovich, Virginie Ledoyen, Enrico Lo Verso, Charlotte Gainsbourg, Asia Argento, Veronica Ferres, Jeanne Moreau, Giovanna Mezzogiorno, Vadim Glowna, Steffen Wink, Otto Sander, Josiane Stoléru, Roger Dumas, Maxime Leroux, Michel Duchaussoy, Sophie Milleron, Guillaume Depardieu, Cédric Chevalme, Denis Podalydès, Gaston Šubert, Jakub Zindulka, David Suchařípa, François Hadji-Lazaro, Babsie Steger, Sacha Bourdo, Jean-Louis Richard, Valerie Lang, Dominique Zardi, Elisabeth Wiener, François Négret, Philippe Ambrosini, Erico Salamone, Karl Zéro, Victor Wagner, Yann Babilée, Pascal Pistacio, Vincent Schmitt, Rodolphe Pauly, Léopoldine Serre, Yannig Samot, Philippe Lamendin, Sébastien Thiery, Sébastien Thiery, Eric Averlant
Producenti: Jean-Pierre Guérin
Střih: Marie-Josèphe Yoyotte
Zvuk: Michel Kharat
Kostýmy: Dagmar Pomajbiková

Obsah:
Osudy Jeana Valjeana patří mezi ty příběhy, které se nám nikdy neomrzí a které budeme vždy vděčně přijímat v nové a nové podobě. Bídníci patří mezi ty příběhy, které každá generace francouzských tvůrců pokládá za výzvu. Zatím poslední filmové zpracování vzniklo v koprodukci pěti států a najdeme pod ním podepsány tvůrce úspěšného přepisu Monte Christa: režisérku Josée Dayanovou, scenáristu Didiera Decoina a Gérarda Depardieua tedy 3D, jak toto úspěšné trio nazývá občas francouzský tisk. Pozornému divákovi neunikne, že se mnohé scény natáčely v Čechách a že se v epizodních rolích objeví i naši herci. Román Bídníci (Ubožáci) psal Victor Hugo po celá desetiletí a dokončil jej až v exilu. Příběh Jeana Valjeana, který uprchl z galejí, kam byl odsouzen za krádež chleba, koncipoval Hugo v pěti dílech. Žádný jeho román nedosáhl tak bouřlivého bezprostředního ohlasu jako právě Bídníci. Na jednotlivé svazky čekaly před jejich vydáním v Bruselu a v Paříži zástupci knihkupců a čtenářů snad ze všech čtoucích vrstev obyvatelstva. Jen v samotné Paříži jich bylo v několika dnech rozebráno na 48 000 výtisků a román byl okamžitě překládán do světových jazyků. Záhy se objevovaly i dramatizace a film počítá adaptace již na desítky. Muzikálové zpracování přitáhlo miliony diváků nejen v Evropě. (oficiální text distributora)

Mediainfo:

Kód: Vybrat vše

General
Complete name                            : E:\Bidnici (2000) 1 FullDVD\BIDNICI_I\VIDEO_TS\VTS_02_1.VOB
Format                                   : MPEG-PS
File size                                : 1 024 MiB
Duration                                 : 20 min 6 s
Overall bit rate mode                    : Variable
Overall bit rate                         : 7 120 kb/s

Video
ID                                       : 224 (0xE0)
Format                                   : MPEG Video
Format version                           : Version 2
Format profile                           : Main@Main
Format settings, BVOP                    : Yes
Format settings, Matrix                  : Custom
Format settings, GOP                     : M=3, N=12
Format settings, picture structure       : Frame
Duration                                 : 20 min 6 s
Bit rate mode                            : Variable
Bit rate                                 : 6 595 kb/s
Maximum bit rate                         : 9 800 kb/s
Width                                    : 720 pixels
Height                                   : 576 pixels
Display aspect ratio                     : 4:3
Frame rate                               : 25.000 FPS
Standard                                 : PAL
Color space                              : YUV
Chroma subsampling                       : 4:2:0
Bit depth                                : 8 bits
Scan type                                : Interlaced
Scan order                               : Top Field First
Compression mode                         : Lossy
Bits/(Pixel*Frame)                       : 0.636
Time code of first frame                 : 09:59:58:00
Time code source                         : Group of pictures header
GOP, Open/Closed                         : Closed
Stream size                              : 948 MiB (93%)

Audio #1
ID                                       : 189 (0xBD)-128 (0x80)
Format                                   : AC-3
Format/Info                              : Audio Coding 3
Mode                                     : Dolby Digital
Format settings, Endianness              : Big
Muxing mode                              : DVD-Video
Duration                                 : 20 min 5 s
Bit rate mode                            : Constant
Bit rate                                 : 192 kb/s
Channel(s)                               : 2 channels
Channel positions                        : Front: L R
Sampling rate                            : 48.0 kHz
Frame rate                               : 31.250 FPS (1536 SPF)
Bit depth                                : 16 bits
Compression mode                         : Lossy
Stream size                              : 27.6 MiB (3%)
Service kind                             : Complete Main

Audio #2
ID                                       : 189 (0xBD)-129 (0x81)
Format                                   : AC-3
Format/Info                              : Audio Coding 3
Mode                                     : Dolby Digital
Format settings, Endianness              : Big
Muxing mode                              : DVD-Video
Duration                                 : 20 min 5 s
Bit rate mode                            : Constant
Bit rate                                 : 192 kb/s
Channel(s)                               : 2 channels
Channel positions                        : Front: L R
Sampling rate                            : 48.0 kHz
Frame rate                               : 31.250 FPS (1536 SPF)
Bit depth                                : 16 bits
Compression mode                         : Lossy
Stream size                              : 27.6 MiB (3%)
Service kind                             : Complete Main

Menu
DVD Info:
Menu: Áno
Bonusy: Nie
Obraz: 4:3
Zvuk: český 2.0, francúzsky 2.0
Titulky: Nie
Veľkosť: 4,10 / 4,15 / 4,19 / 3,78 GB
Kvalita DVD: bez kompresie
Obal/Potlač: Áno/Áno

Webshare:

Kód: Vybrat vše

https://webshare.cz/file/6yS2m274j2/bidnici-2000-1-fulldvd-part1-rar
https://webshare.cz/file/5C124c39e2/bidnici-2000-1-fulldvd-part2-rar
https://webshare.cz/file/3A745r4ni4/bidnici-2000-1-fulldvd-part3-rar

https://webshare.cz/file/56w51l2Ui1/bidnici-2000-2-fulldvd-part1-rar
https://webshare.cz/file/4aM2j62iG6/bidnici-2000-2-fulldvd-part2-rar
https://webshare.cz/file/6F43c11wM5/bidnici-2000-2-fulldvd-part3-rar

https://webshare.cz/file/gn7Jpk44re/bidnici-2000-3-fulldvd-part1-rar
https://webshare.cz/file/1Q763i56s1/bidnici-2000-3-fulldvd-part2-rar
https://webshare.cz/file/6Tn6sbd96a/bidnici-2000-3-fulldvd-part3-rar

https://webshare.cz/file/sX1bm7ne12/bidnici-2000-4-fulldvd-part1-rar
https://webshare.cz/file/6ey7CM47p5/bidnici-2000-4-fulldvd-part2-rar
https://webshare.cz/file/g74vV4ao1u/bidnici-2000-4-fulldvd-part3-rar
Ulož.to:

Kód: Vybrat vše

https://ulozto.sk/!7at74Uv7nclP/bidnici-2000-1-fulldvd-part1-rar
https://ulozto.sk/!T8p04wxQZ8po/bidnici-2000-1-fulldvd-part2-rar
https://ulozto.sk/!mKXjAs96W3Tl/bidnici-2000-1-fulldvd-part3-rar

https://ulozto.sk/!xDE7rPBihBCK/bidnici-2000-2-fulldvd-part1-rar
https://ulozto.sk/!aiHcOHYvZGwJ/bidnici-2000-2-fulldvd-part2-rar
https://ulozto.sk/!nwTOvpeRwZ8a/bidnici-2000-2-fulldvd-part3-rar

https://ulozto.sk/!dj6gDw44ZHk0/bidnici-2000-3-fulldvd-part1-rar
https://ulozto.sk/!GBSpcvBJgDwk/bidnici-2000-3-fulldvd-part2-rar
https://ulozto.sk/!XmQ8rcaH5ouU/bidnici-2000-3-fulldvd-part3-rar

https://ulozto.sk/!ctkPsSe1A32t/bidnici-2000-4-fulldvd-part1-rar
https://ulozto.sk/!upJM4HIOhG4l/bidnici-2000-4-fulldvd-part2-rar
https://ulozto.sk/!S89h5wCBNEP1/bidnici-2000-4-fulldvd-part3-rar
Linky sa dajú kombinovať.
Pridaný záznam na opravu dát 5%.
Moje DVD uploady sú čisté kópie originálov, bez kompresie a bez hesla.

Odpovědět

Kdo je online

Uživatelé prohlížející si toto fórum: Žádní registrovaní uživatelé a 1 host